Página 15 de 18 PrimeiroPrimeiro ... 51314151617 ... ÚltimoÚltimo
Resultados 141 a 150 de 173

Tópico: Official - Clube do Compact Disc

  1. #141
    * Membro VIP * Avatar de Nixon
    Data de Ingresso
    May 2015
    Localização
    Brasil !
    Mensagens
    234
    Agradecimentos: 15
    Na época não foi pra banca que eu comprava.
    .

  2. The Following 2 Users Say Thank You to Nixon For This Useful Post:


  3. #142
    Membro Avatar de Luan
    Data de Ingresso
    Aug 2020
    Localização
    São Paulo
    Mensagens
    43
    Agradecimentos: 70
    Sonzera do domingão!


  4. The Following 3 Users Say Thank You to Luan For This Useful Post:


  5. #143
    Membro Avatar de Jucier
    Data de Ingresso
    Aug 2020
    Localização
    Paulista/PE
    Mensagens
    38
    Agradecimentos: 55
    Artista: Tias Fofinhas
    Album: The Seeds Of Love
    Ano de lançamento: 1989
    Ano de lançamento da edição: 1989
    Label: Fontana ‎– 838 730-2
    País: US
    Fabricante PolyGram Records, Inc.
    Matrix: 8387302 02@ FI
















    --------------------------------------------------------------------------------
    Analyzed: Tears For Fears / The Seeds Of Love
    --------------------------------------------------------------------------------

    DR Peak RMS Duration Track
    --------------------------------------------------------------------------------
    DR14 -0.20 dB -17.00 dB 6:30 01-Woman In Chains
    DR13 -0.20 dB -16.28 dB 8:33 02-Bad Man's Song
    DR13 -0.51 dB -15.16 dB 6:19 03-Sowing The Seeds Of Love
    DR14 -0.20 dB -16.48 dB 4:55 04-Advice For The Young At Heart
    DR13 -0.93 dB -18.19 dB 5:34 05-Standing On The Corner Of The Third World
    DR11 -0.20 dB -15.84 dB 6:20 06-Swords And Knives
    DR13 -0.20 dB -15.30 dB 6:55 07-Year Of The Knife
    DR12 -1.14 dB -19.42 dB 4:31 08-Famous Last Words
    --------------------------------------------------------------------------------

    Number of tracks: 8
    Official DR value: DR13

    Samplerate: 44100 Hz
    Channels: 2
    Bits per sample: 16
    Bitrate: 1411 kbps
    Codec: PCM
    ================================================== ==============================




    Woman In Chains
    https://drive.google.com/file/d/1gDC...ew?usp=sharing

    Sowing The Seeds Of Love
    https://drive.google.com/file/d/1hqz...ew?usp=sharing

    Advice For The Young At Heart
    https://drive.google.com/file/d/1V34...ew?usp=sharing
    Última edição por Jucier; 11-11-20 às 18:00.

  6. The Following 2 Users Say Thank You to Jucier For This Useful Post:


  7. #144
    * Membro VIP * Avatar de Nixon
    Data de Ingresso
    May 2015
    Localização
    Brasil !
    Mensagens
    234
    Agradecimentos: 15
    Citação Enviado originalmente por Jucier Ver Mensagem
    Artista: Tias Fofinhas
    Album: The Seeds Of Love
    Ano de lançamento: 1989
    Ano de lançamento da edição: 1989
    Label: Fontana ‎– 838 730-2
    País: US
    Fabricante PolyGram Records, Inc.
    Matrix: 8387302 02@ FI
















    --------------------------------------------------------------------------------
    Analyzed: Tears For Fears / The Seeds Of Love
    --------------------------------------------------------------------------------

    DR Peak RMS Duration Track
    --------------------------------------------------------------------------------
    DR14 -0.20 dB -17.00 dB 6:30 01-Woman In Chains
    DR13 -0.20 dB -16.28 dB 8:33 02-Bad Man's Song
    DR13 -0.51 dB -15.16 dB 6:19 03-Sowing The Seeds Of Love
    DR14 -0.20 dB -16.48 dB 4:55 04-Advice For The Young At Heart
    DR13 -0.93 dB -18.19 dB 5:34 05-Standing On The Corner Of The Third World
    DR11 -0.20 dB -15.84 dB 6:20 06-Swords And Knives
    DR13 -0.20 dB -15.30 dB 6:55 07-Year Of The Knife
    DR12 -1.14 dB -19.42 dB 4:31 08-Famous Last Words
    --------------------------------------------------------------------------------

    Number of tracks: 8
    Official DR value: DR13

    Samplerate: 44100 Hz
    Channels: 2
    Bits per sample: 16
    Bitrate: 1411 kbps
    Codec: PCM
    ================================================== ==============================




    Woman In Chains
    https://drive.google.com/file/d/1gDC...ew?usp=sharing

    Sowing The Seeds Of Love
    https://drive.google.com/file/d/1hqz...ew?usp=sharing

    Advice For The Young At Heart
    https://drive.google.com/file/d/1V34...ew?usp=sharing
    Quando foi lançado esse disco, um colega de república comprou pra " conquistar " as meninas... prova científica que um vinil não fura! hahaha

    Eu gosto até hoje, mas nunca tive! vai pra wish list
    .

  8. Os seguintes membros agradeceram Nixon por esta mensagem:


  9. #145
    Membro Avatar de Jucier
    Data de Ingresso
    Aug 2020
    Localização
    Paulista/PE
    Mensagens
    38
    Agradecimentos: 55
    Artista: Marina
    Album: Fullgás
    Ano de lançamento: 1984
    Ano de lançamento da edição: 199? (reissue: 1994~1998)
    Label: Philips ‎– 818 380-2
    País: Brazil
    Matrix: 13187A MICROSERVICE 02\818380-2 2700/7













    --------------------------------------------------------------------------------
    Analyzed: Marina / Fullgás
    --------------------------------------------------------------------------------

    DR Peak RMS Duration Track
    --------------------------------------------------------------------------------
    DR13 -0.86 dB -16.29 dB 4:10 01-Fullgás
    DR13 -0.68 dB -16.33 dB 2:36 02-Pé Na Tábua (Ordinary Pain)
    DR13 -2.19 dB -18.95 dB 2:59 03-Pra Sempre Mais Um Dia
    DR13 -0.14 dB -16.36 dB 3:35 04-Ensaios De Amor
    DR14 -0.53 dB -17.49 dB 4:42 05-Mesmo Que Seja Eu
    DR14 -1.22 dB -18.89 dB 3:52 06-Me Chama
    DR13 -1.31 dB -15.96 dB 2:59 07-Mesmo Se O Vento Levou
    DR15 -13.44 dB -31.92 dB 0:42 08-Cícero E Marina
    DR13 -0.97 dB -16.04 dB 4:55 09-Veneno (Veleno)
    DR13 -1.55 dB -17.75 dB 3:08 10-Mais Uma Vez
    DR14 -1.72 dB -18.31 dB 3:57 11-Nosso Estilo
    --------------------------------------------------------------------------------

    Number of tracks: 11
    Official DR value: DR13

    Samplerate: 44100 Hz
    Channels: 2
    Bits per sample: 16
    Bitrate: 1411 kbps
    Codec: PCM
    ================================================== ==============================




    01-Fullgás
    https://drive.google.com/file/d/1Jlg...ew?usp=sharing

    02-Pé Na Tábua (Ordinary Pain)
    https://drive.google.com/file/d/1avn...ew?usp=sharing

    05-Mesmo Que Seja Eu
    https://drive.google.com/file/d/1iEP...ew?usp=sharing

    06-Me Chama
    https://drive.google.com/file/d/1m0X...ew?usp=sharing

  10. The Following 4 Users Say Thank You to Jucier For This Useful Post:


  11. #146
    * Membro VIP * Avatar de luiz carlos
    Data de Ingresso
    Aug 2012
    Localização
    são bernardo do campo
    Mensagens
    427
    Agradecimentos: 37
    Citação Enviado originalmente por Jucier Ver Mensagem
    Artista: Marina
    Album: Fullgás
    Ano de lançamento: 1984
    Ano de lançamento da edição: 199? (reissue: 1994~1998)
    Label: Philips ‎– 818 380-2
    País: Brazil
    Matrix: 13187A MICROSERVICE 02\818380-2 2700/7













    --------------------------------------------------------------------------------
    Analyzed: Marina / Fullgás
    --------------------------------------------------------------------------------

    DR Peak RMS Duration Track
    --------------------------------------------------------------------------------
    DR13 -0.86 dB -16.29 dB 4:10 01-Fullgás
    DR13 -0.68 dB -16.33 dB 2:36 02-Pé Na Tábua (Ordinary Pain)
    DR13 -2.19 dB -18.95 dB 2:59 03-Pra Sempre Mais Um Dia
    DR13 -0.14 dB -16.36 dB 3:35 04-Ensaios De Amor
    DR14 -0.53 dB -17.49 dB 4:42 05-Mesmo Que Seja Eu
    DR14 -1.22 dB -18.89 dB 3:52 06-Me Chama
    DR13 -1.31 dB -15.96 dB 2:59 07-Mesmo Se O Vento Levou
    DR15 -13.44 dB -31.92 dB 0:42 08-Cícero E Marina
    DR13 -0.97 dB -16.04 dB 4:55 09-Veneno (Veleno)
    DR13 -1.55 dB -17.75 dB 3:08 10-Mais Uma Vez
    DR14 -1.72 dB -18.31 dB 3:57 11-Nosso Estilo
    --------------------------------------------------------------------------------

    Number of tracks: 11
    Official DR value: DR13

    Samplerate: 44100 Hz
    Channels: 2
    Bits per sample: 16
    Bitrate: 1411 kbps
    Codec: PCM
    ================================================== ==============================




    01-Fullgás
    https://drive.google.com/file/d/1Jlg...ew?usp=sharing

    02-Pé Na Tábua (Ordinary Pain)
    https://drive.google.com/file/d/1avn...ew?usp=sharing

    05-Mesmo Que Seja Eu
    https://drive.google.com/file/d/1iEP...ew?usp=sharing

    06-Me Chama
    https://drive.google.com/file/d/1m0X...ew?usp=sharing
    Somente um detalhe: em 1984 esse disco foi lançado em LP e fita cassete. Se não me engano o primeiro CD lançado no Brasil foi uma coletânea em 1986. Nesse mesmo ano eu comprei meu "laser disc", era como se chamava o CD player na época. Marca: Akai- modelo CD-A7, no Paraguai, por US$ 300,00. Comprei junto o CD de Winton Marsalis, tocando músicas de Haydn. Nesse mesmo ano havia uma locadora perto da minha casa que tinha CDs importados, que eu alugava para copiar em fita cassete.

  12. The Following 4 Users Say Thank You to luiz carlos For This Useful Post:


  13. #147
    Membro
    Data de Ingresso
    Sep 2011
    Localização
    Rio de Janeiro - RJ
    Mensagens
    296
    Agradecimentos: 25
    Citação Enviado originalmente por luiz carlos Ver Mensagem
    ... Nesse mesmo ano eu comprei meu "laser disc", era como se chamava o CD player na época. Marca: Akai- modelo CD-A7, no Paraguai, por US$ 300,00.
    Bons tempos... Eu comprei o meu primeiro "laser disc" em 1987, um Sony CDP-7F, mas ainda era ruim de achar CD no mercado.
    Um abraço,

    Helio

  14. The Following 4 Users Say Thank You to HelioM For This Useful Post:


  15. #148
    * Membro VIP * Avatar de luiz carlos
    Data de Ingresso
    Aug 2012
    Localização
    são bernardo do campo
    Mensagens
    427
    Agradecimentos: 37
    Citação Enviado originalmente por HelioM Ver Mensagem
    Bons tempos... Eu comprei o meu primeiro "laser disc" em 1987, um Sony CDP-7F, mas ainda era ruim de achar CD no mercado.
    Pois é, Hélio. Quando comprei o CD do Winton Marsalis paguei US$ 20,00. Era bem caro. Nessa loja comentei com o vendedor que por sinal era bem atencioso, eu falei que já tinha comprado o aparelho e ele me falou: "você deveria ter comprado o Sony- que ele tinha na loja- em vez do Akai. Na época, antes de comprar o aparelho, eu tive de ir à Polícia Federal na fronteira (Ponte da Amizade) para falar qual o modelo, para saber se eu poderia trazê-lo sem problemas. O policial, depois de folhear um calhamaço grande, procurou pelo modelo e me falou: o valor é de US$ 300,00. Você pode levar só isso, que é a quota para não pagar imposto. Peguei um ônibus para atravessar a fronteira. Lá entrou um fiscal, me viu com a caixa, me fez descer, fui até à cabine e outro policial verificou de novo e me liberou. Quando chegamos a Cumbica eu peguei minhas malas na esteira e a caixa com o aparelho não chegava. Demorou. Quando fui pegá-la, aproximou-se um funcionário da Receita Federal e me perguntou o quê havia na caixa. Eu respondi e perguntei se ele queria que eu abrisse a caixa e ele disse que não. Perguntei o porquê. Ele disse que eu poderia estar trazendo um vídeo-cassete dentro da caixa ao invés de um aparelho de CD e aí me liberou. Foi uma novela. Naquela época a importação de vídeo-cassete era proibida porque havia a famosa reserva de mercado.

  16. The Following 2 Users Say Thank You to luiz carlos For This Useful Post:


  17. #149
    Administrador Avatar de Eduardo
    Data de Ingresso
    Apr 2011
    Localização
    Aqui mesmo...
    Mensagens
    6,129
    Agradecimentos: 48
    Meu primeiro player foi um CDP 420 da Gradiente. Foi lançado junto com o CDP 380, e só mudava a largura para se adaptar aos racks existentes (420mm e 380mm).
    Uma decepção, funcionava bem com alguns discos e outros pulava faixas. Paguei caro. Vendi alguns meses depois e comprei um Sony no Paraguai, bem simples, nunca deu problema. Tenho até hoje funcionando.
    Eduardo

    ____________________________________________

    Audiofilia: Retroceder Nunca, Render-se Jamais

    www.hifiplanet.com.br

  18. The Following 2 Users Say Thank You to Eduardo For This Useful Post:


  19. #150
    Membro
    Data de Ingresso
    Sep 2011
    Localização
    Rio de Janeiro - RJ
    Mensagens
    296
    Agradecimentos: 25
    Citação Enviado originalmente por luiz carlos Ver Mensagem
    Foi uma novela...
    Luiz Carlos,

    E que novela... Eu quando comprei o meu, ainda consegui encontrar um CD do Led Zeppelin e foi bem caro. Fiquei bastante tempo somente com este CD...
    Um abraço,

    Helio

  20. The Following 2 Users Say Thank You to HelioM For This Useful Post:


Permissões de Envio de Mensagem

  • Você não pode iniciar novos tópicos
  • Você não pode enviar respostas
  • Você não pode enviar anexos
  • Você não pode editar suas mensagens
  •