Página 13 de 14 PrimeiroPrimeiro ... 311121314 ÚltimoÚltimo
Resultados 121 a 130 de 131

Tópico: Official - Clube do Compact Disc

  1. #121
    Membro Avatar de Luan
    Data de Ingresso
    Aug 2020
    Localização
    São Paulo
    Mensagens
    29
    Agradecimentos: 25
    Edição maravilhosa, Mestre!

    Essa primeira masterizaçao do Machine Head que saiu nas edições da Warner são ótimas! É um álbum que se deve comprar nas edições originais, a remaster nova perde feio.

  2. The Following 2 Users Say Thank You to Luan For This Useful Post:


  3. #122
    Membro Avatar de Luan
    Data de Ingresso
    Aug 2020
    Localização
    São Paulo
    Mensagens
    29
    Agradecimentos: 25
    Citação Enviado originalmente por Dartagnan Ver Mensagem
    Valeu. Bom, tenho certeza que esses japoneses aqui são a melhor versão. Até porque são as únicas.... . Em geral, trilhas sonoras de anime não são lançadas no ocidente, salvo em alguns casos.
    Bem legal, no ML tem um CD japones da trilha do Yu Yu Hakusho, que pra mim foi um dos desenhos mais marcantes!

  4. The Following 2 Users Say Thank You to Luan For This Useful Post:


  5. #123
    Membro Avatar de Luan
    Data de Ingresso
    Aug 2020
    Localização
    São Paulo
    Mensagens
    29
    Agradecimentos: 25
    Artista:*Pink Floyd
    Album:*The Wall
    Ano de lançamento:*1979
    Ano de lançamento da edição:*1988
    Label:*CK 36184 - C2K 36183
    País:*USA

    EDIÇÃO: Edição norte americana feita pela DADC, aqui existe um compartilhamento de masterizaçoes, essa edição usa a primeira Master japonesa com pre-emph.

    O SOM DO CD: Pra mim de todas as masters que já ouvi desse álbum, essa é a que mais me agrada! Ótimo palco e graves precisos e firmes! Indico a todos que curtem o The Wall que escutem essa masterizaçao, lembrando que para ouvir da forma correta seu Dac/player deve possuir o De-Emph, para fazer a EQ da forma correta.

    FOTOS:


    *

  6. The Following 3 Users Say Thank You to Luan For This Useful Post:


  7. #124
    Membro Avatar de yestaken
    Data de Ingresso
    Feb 2014
    Localização
    Brasília
    Mensagens
    56
    Agradecimentos: 69
    Continuando...


    Artista: Black Sabbath
    Album: Seventh Star
    Ano de lançamento: 1990
    Ano de lançamento da edição: 1986
    Label: Vertigo ‎- PHCR-2055
    País: Japan
    Matrix: 826 704-A1K (12) V TETRIS BARCODE







  8. The Following 2 Users Say Thank You to yestaken For This Useful Post:


  9. #125
    Membro Avatar de Jucier
    Data de Ingresso
    Aug 2020
    Localização
    Paulista/PE
    Mensagens
    31
    Agradecimentos: 38
    Artista: Legião Urbana
    Álbum: Legião Urbana
    Ano de lançamento: 1985
    Ano de lançamento da edição: 1988
    Label: EMI-Odeon ‎– 364 748209 2
    País: Brazil
    Fabricante: Microservice
    Matrix: BR8/0498 A1-1







    Case com logotipo da Microservice






    Geralmente, nem posto foto da face inferior da mídia, porém postei essa pra mostrar o quanto está novinha.





    Encarte bem conservado também.







    Notei que no Loudness-War só há duas edições da banda (agora três)

    --------------------------------------------------------------------------------
    Analyzed: Legião Urbana / Legião Urbana
    --------------------------------------------------------------------------------

    DR Peak RMS Duration Track
    --------------------------------------------------------------------------------
    DR12 -2.95 dB -17.51 dB 2:30 01-Será
    DR14 -1.58 dB -17.40 dB 4:01 02-A Dança
    DR11 -2.86 dB -15.74 dB 3:03 03-Petróleo Do Futuro
    DR12 -2.97 dB -17.84 dB 3:57 04-Ainda É Cedo
    DR12 -6.90 dB -21.22 dB 2:57 05-Perdidos No Espaço
    DR11 -3.03 dB -16.98 dB 2:21 06-Geração Coca-Cola
    DR13 -3.36 dB -18.56 dB 3:34 07-O Reggae
    DR11 -3.51 dB -17.09 dB 3:27 08-Baader-Meinholf Blues
    DR12 -6.17 dB -20.86 dB 4:50 09-Soldados
    DR11 -5.19 dB -18.14 dB 3:06 10-Teorema
    DR13 -8.11 dB -24.75 dB 3:15 11-Por Enquanto
    --------------------------------------------------------------------------------

    Number of tracks: 11
    Official DR value: DR12

    Samplerate: 44100 Hz
    Channels: 2
    Bits per sample: 16
    Bitrate: 1411 kbps
    Codec: PCM
    ================================================== ==============================




    Por Enquanto
    https://drive.google.com/file/d/17Za...ew?usp=sharing

    Ainda É Cedo
    https://drive.google.com/file/d/1_m6...ew?usp=sharing

    Será
    https://drive.google.com/file/d/15I_...ew?usp=sharing
    Última edição por Jucier; 15-10-20 às 15:13.

  10. The Following 3 Users Say Thank You to Jucier For This Useful Post:


  11. #126
    Membro Avatar de Jucier
    Data de Ingresso
    Aug 2020
    Localização
    Paulista/PE
    Mensagens
    31
    Agradecimentos: 38
    Artista: Legião Urbana
    Álbum: Dois
    Ano de lançamento: 1986
    Ano de lançamento da edição: 1988
    Label: EMI-Odeon ‎– 364 748147 2
    País: Brazil
    Fabricante: Microservice
    Matrix: BR8/0499 A1-1


















    Agora apenas quatro edições com DRs cadastradas no Loudness-War (coloca os teus aí também, @Luandumonza)

    --------------------------------------------------------------------------------
    Analyzed: Legião Urbana / Dois
    --------------------------------------------------------------------------------

    DR Peak RMS Duration Track
    --------------------------------------------------------------------------------
    DR12 -1.80 dB -16.23 dB 4:04 01-Daniel Na Cova Dos Leões
    DR13 -0.79 dB -16.11 dB 4:42 02-Quase Sem Querer
    DR13 -2.74 dB -18.20 dB 4:43 03-Acrilic On Canvas
    DR13 -2.46 dB -16.65 dB 4:31 04-Eduardo E Mônica
    DR12 -9.42 dB -23.67 dB 1:35 05-Central Do Brasil
    DR12 -1.36 dB -16.12 dB 5:03 06-Tempo Perdido
    DR11 -4.30 dB -16.84 dB 2:50 07-Metrópole
    DR12 -2.54 dB -16.92 dB 2:54 08-Plantas Embaixo Do Aquário
    DR14 -5.90 dB -23.55 dB 2:41 09-Música Urbana 2
    DR11 -4.60 dB -18.65 dB 4:53 10-Andrea Doria
    DR11 -3.84 dB -17.02 dB 4:56 11-Fábrica
    DR12 -4.08 dB -17.64 dB 4:18 12-"Índios"
    --------------------------------------------------------------------------------

    Number of tracks: 12
    Official DR value: DR12

    Samplerate: 44100 Hz
    Channels: 2
    Bits per sample: 16
    Bitrate: 1411 kbps
    Codec: PCM
    ================================================== ==============================




    01-Daniel Na Cova Dos Leões
    https://drive.google.com/file/d/1hi0...ew?usp=sharing

    02-Quase Sem Querer
    https://drive.google.com/file/d/1K98...ew?usp=sharing

    06-Tempo Perdido
    https://drive.google.com/file/d/1H3m...ew?usp=sharing

    10-Andrea Doria
    https://drive.google.com/file/d/1EmC...ew?usp=sharing

    12-"Índios"
    https://drive.google.com/file/d/1lVA...ew?usp=sharing

  12. The Following 3 Users Say Thank You to Jucier For This Useful Post:


  13. #127
    * Membro VIP * Avatar de Nixon
    Data de Ingresso
    May 2015
    Localização
    Brasil !
    Mensagens
    224
    Agradecimentos: 3
    Do legião tenho aquela edição completa que foi vendida em bancas de revistas, alguns CDs ainda estão lacrados!
    Recentemente consegui fechar a edição Mestres do Blues ( 60 CDs ), nessa edição vendida em Banca de Revista cada CD é acompanhado de um livreto contando a história do artista/gravação.

    Depois tento postar umas fotos aqui.

    Abs.
    .

  14. The Following 2 Users Say Thank You to Nixon For This Useful Post:


  15. #128
    Membro Avatar de Jucier
    Data de Ingresso
    Aug 2020
    Localização
    Paulista/PE
    Mensagens
    31
    Agradecimentos: 38
    Artista: Titãs
    Álbum: Cabeça Dinossauro
    Ano de lançamento: 1986
    Ano de lançamento da edição: 1987
    Label: WEA ‎– 255122-2
    País: Brazil
    Matrix: BR7/0081MICROSERVICE SRC-01

















    --------------------------------------------------------------------------------
    Analyzed: Titãs / Cabeça Dinossauro
    --------------------------------------------------------------------------------

    DR Peak RMS Duration Track
    --------------------------------------------------------------------------------
    DR14 -1.71 dB -18.82 dB 2:20 01-Cabeça Dinossauro
    DR12 -2.73 dB -17.67 dB 3:04 02-Aa Uu
    DR12 -3.15 dB -16.91 dB 2:49 03-Igreja
    DR12 -2.88 dB -16.51 dB 2:09 04-Polícia
    DR12 -2.52 dB -17.21 dB 3:11 05-Estado Violência
    DR11 -4.24 dB -17.76 dB 0:38 06-A Face Do Destruidor
    DR12 -3.49 dB -17.39 dB 2:53 07-Porrada
    DR11 -3.98 dB -16.88 dB 2:20 08-Tô Cansado
    DR13 -2.76 dB -17.19 dB 3:15 09-Bichos Escrotos
    DR15 -1.54 dB -18.35 dB 3:33 10-Família
    DR13 -2.79 dB -17.67 dB 3:30 11-Homem Primata
    DR15 -1.84 dB -17.94 dB 3:10 12-Dívidas
    DR13 -1.84 dB -17.42 dB 5:47 13-O Quê
    --------------------------------------------------------------------------------

    Number of tracks: 13
    Official DR value: DR13

    Samplerate: 44100 Hz
    Channels: 2
    Bits per sample: 16
    Bitrate: 1411 kbps
    Codec: PCM
    ================================================== ==============================




    01-Cabeça Dinossauro
    https://drive.google.com/file/d/1F5m...ew?usp=sharing

    04-Polícia
    https://drive.google.com/file/d/1LqB...ew?usp=sharing

    09-Bichos Escrotos
    https://drive.google.com/file/d/1V7q...ew?usp=sharing

  16. The Following 2 Users Say Thank You to Jucier For This Useful Post:


  17. #129
    Membro Avatar de Jucier
    Data de Ingresso
    Aug 2020
    Localização
    Paulista/PE
    Mensagens
    31
    Agradecimentos: 38
    Citação Enviado originalmente por Nixon Ver Mensagem
    Do legião tenho aquela edição completa que foi vendida em bancas de revistas, alguns CDs ainda estão lacrados!
    Recentemente consegui fechar a edição Mestres do Blues ( 60 CDs ), nessa edição vendida em Banca de Revista cada CD é acompanhado de um livreto contando a história do artista/gravação.

    Depois tento postar umas fotos aqui.

    Abs.
    Tenho alguns dessa coleção da Abril aqui. Porém não consegui completar por conta da periodicidade e por esgotarem muito rápido. O que atrapalhou um pouco foi porque tentei completar duas unidades da coleção (para mim e para meu irmão). Nesse saldo, fiquei com essa coleção incompleta e com dois boxes para guardá-la sem uso.

  18. The Following 2 Users Say Thank You to Jucier For This Useful Post:


  19. #130
    Membro Avatar de Jucier
    Data de Ingresso
    Aug 2020
    Localização
    Paulista/PE
    Mensagens
    31
    Agradecimentos: 38
    Acabei não dando sorte com este. Mas já providenciei a devolução.



    Artista: Legião Urbana
    Álbum: As Quatro Estações
    Ano de lançamento: 1989
    Ano de lançamento da edição: 1989
    Label: EMI-Odeon ‎– 368 793377 2
    País: Brazil
    Fabricante: Microservice
    Matrix: ▪ 368 793377 2 AR @ 2 ▪



















    --------------------------------------------------------------------------------
    Analyzed: Legião Urbana / As Quatro Estações
    --------------------------------------------------------------------------------

    DR Peak RMS Duration Track
    --------------------------------------------------------------------------------
    DR13 -1.86 dB -17.18 dB 3:18 01-Há Tempos
    DR13 -1.08 dB -18.37 dB 5:09 02-Pais E Filhos
    DR12 -4.76 dB -20.23 dB 5:25 03-Feedback Song For A Dying Friend
    DR13 -1.04 dB -16.41 dB 3:12 04-Quando O Sol Bater Na Janela Do Seu Quarto
    DR12 -0.54 dB -14.98 dB 6:45 05-Eu Era Um Lobisomem Juvenil
    DR12 -0.57 dB -15.50 dB 3:43 06-1965 (Duas Tribos)
    DR12 -1.15 dB -16.61 dB 3:51 07-Monte Castelo
    DR12 -1.24 dB -15.94 dB 3:17 08-Maurício
    DR13 -0.58 dB -15.21 dB 3:23 09-Meninos E Meninas
    DR12 -0.40 dB -15.26 dB 3:25 10-Sete Cidades
    DR13 -0.23 dB -16.56 dB 4:55 11-Se Fiquei Esperando Meu Amor Passar
    --------------------------------------------------------------------------------

    Number of tracks: 11
    Official DR value: DR13

    Samplerate: 44100 Hz
    Channels: 2
    Bits per sample: 16
    Bitrate: 1411 kbps
    Codec: PCM
    ================================================== ==============================




    01-Há Tempos
    https://drive.google.com/file/d/1_3G...ew?usp=sharing

    05-Eu Era Um Lobisomem Juvenil
    https://drive.google.com/file/d/1Ku1...ew?usp=sharing

    07-Monte Castelo
    https://drive.google.com/file/d/1WZN...ew?usp=sharing

    08-Maurício
    https://drive.google.com/file/d/1mjA...ew?usp=sharing

  20. The Following 2 Users Say Thank You to Jucier For This Useful Post:


Permissões de Envio de Mensagem

  • Você não pode iniciar novos tópicos
  • Você não pode enviar respostas
  • Você não pode enviar anexos
  • Você não pode editar suas mensagens
  •