Página 10 de 11 PrimeiroPrimeiro ... 891011 ÚltimoÚltimo
Resultados 91 a 100 de 104

Tópico: Official - Clube do Compact Disc

  1. #91
    Administrador Avatar de Eduardo
    Data de Ingresso
    Apr 2011
    Localização
    Aqui mesmo...
    Mensagens
    6,049
    Agradecimentos: 22
    Concordo.
    Eduardo

    ____________________________________________

    Audiofilia: Retroceder Nunca, Render-se Jamais

    www.hifiplanet.com.br

  2. The Following 3 Users Say Thank You to Eduardo For This Useful Post:


  3. #92
    Membro Avatar de Jucier
    Data de Ingresso
    Aug 2020
    Localização
    Paulista/PE
    Mensagens
    21
    Agradecimentos: 18
    VAPVDN (x2)


    Artista: Pet Shop Boys
    Álbum: Please
    Ano de lançamento: 1986
    Ano de lançamento da edição: 1994
    Label: EMI-Toshiba TOCP-8176
    País: Japan
    Matrix: TOCP-8176 1A1 TO | Toshiba


    Aparentemente o único CD lançado que possui a masterização original, mas sem pré-ênfase.
    Fonte: http://dr.loudness-war.info/album/view/174208







    Da época em que não era discípulo do Mestre Pedro









    --------------------------------------------------------------------------------
    Analyzed: Pet Shop Boys / Please
    --------------------------------------------------------------------------------

    DR Peak RMS Duration Track
    --------------------------------------------------------------------------------
    DR14 -1.17 dB -17.77 dB 3:35 01-Two Divided By Zero
    DR16 -0.08 dB -17.61 dB 4:46 02-West End Girls
    DR13 -1.26 dB -16.28 dB 3:44 03-Opportunities (Let's Make Lots Of Money)
    DR12 -0.07 dB -14.69 dB 4:19 04-Love Comes Quickly
    DR13 -0.48 dB -15.55 dB 5:08 05-Suburbia
    DR13 -0.71 dB -16.20 dB 5:06 06-Opportunities (Reprise)/Tonight Is Forever
    DR14 -0.79 dB -17.67 dB 4:30 07-Violence
    DR12 -0.14 dB -16.34 dB 4:06 08-I Want A Lover
    DR12 -4.58 dB -19.14 dB 2:49 09-Later Tonight
    DR14 -0.89 dB -17.31 dB 4:46 10-Why Don't We Live Together
    --------------------------------------------------------------------------------

    Number of tracks: 10
    Official DR value: DR13

    Samplerate: 44100 Hz
    Channels: 2
    Bits per sample: 16
    Bitrate: 941 kbps
    Codec: FLAC
    ================================================== ==============================





    West End Girls
    https://drive.google.com/file/d/1L3u...ew?usp=sharing

    Opportunities (Let's Make Lots Of Money)
    https://drive.google.com/file/d/1P11...ew?usp=sharing

    Love Comes Quickly
    https://drive.google.com/file/d/1CPt...ew?usp=sharing

    Suburbia
    https://drive.google.com/file/d/1mMz...ew?usp=sharing





    Artista: Pet Shop Boys
    Álbum: Actually
    Ano de lançamento: 1987
    Ano de lançamento da edição: 1994
    Label: EMI-Toshiba TOCP-8177
    País: Japan
    Matrix: TOCP-8177 2A1 TO Toshiba


    Mesma masterização do CD original, apenas um pouco mais alto.
    Fonte: http://dr.loudness-war.info/album/view/175413









    Lombadas de ambas as edições







    --------------------------------------------------------------------------------
    Analyzed: Pet Shop Boys / Actually
    --------------------------------------------------------------------------------

    DR Peak RMS Duration Track
    --------------------------------------------------------------------------------
    DR13 -0.35 dB -16.01 dB 5:31 01-One More Chance
    DR14 -0.38 dB -16.22 dB 4:22 02-What Have I Done To Deserve This?
    DR14 0.00 dB -15.78 dB 3:37 03-Shopping
    DR13 -0.98 dB -16.58 dB 5:09 04-Rent
    DR14 -1.10 dB -16.74 dB 4:45 05-Hit Music
    DR11 -1.10 dB -16.52 dB 5:21 06-It Couldn't Happen Here
    DR13 0.00 dB -16.14 dB 4:59 07-It's A Sin
    DR14 0.00 dB -15.91 dB 5:09 08-I Want To Wake Up
    DR15 0.00 dB -15.98 dB 3:58 09-Heart
    DR13 -0.86 dB -15.83 dB 5:10 10-King's Cross
    --------------------------------------------------------------------------------

    Number of tracks: 10
    Official DR value: DR13

    Samplerate: 44100 Hz
    Channels: 2
    Bits per sample: 16
    Bitrate: 894 kbps
    Codec: FLAC
    ================================================== ==============================





    Rent
    https://drive.google.com/file/d/1P7n...ew?usp=sharing

    It's A Sin
    https://drive.google.com/file/d/1nMB...ew?usp=sharing

    Heart
    https://drive.google.com/file/d/1bX5...ew?usp=sharing

    What Have I Done To Deserve This
    https://drive.google.com/file/d/1Jf_...ew?usp=sharing
    Última edição por Jucier; 02-09-20 às 21:33.

  4. The Following 3 Users Say Thank You to Jucier For This Useful Post:


  5. #93
    Membro Avatar de yestaken
    Data de Ingresso
    Feb 2014
    Localização
    Brasília
    Mensagens
    50
    Agradecimentos: 53
    Continuando...


    Artista: Bitkids
    Album: Bitkids
    Ano de lançamento: 1996
    Ano de lançamento da edição: 1996
    Label: Polygram - 532 252-2
    País: Brasil
    Matrix: 09741A MICROSERVICE 02\532252-2 3420/6 IFPI L361 540H






  6. The Following 3 Users Say Thank You to yestaken For This Useful Post:


  7. #94
    Membro Avatar de Jucier
    Data de Ingresso
    Aug 2020
    Localização
    Paulista/PE
    Mensagens
    21
    Agradecimentos: 18
    Artista: Pet Shop Boys
    Álbum: Instrospective
    Ano de lançamento: 1988
    Ano de lançamento da edição: 1988
    Label: EMI ‎– CP25-5670, EMI ‎– CDP 7 90868 2
    País: Japan
    Matrix: CP25-5670 1A2 TO | Toshiba-EMI Ltd.
















    --------------------------------------------------------------------------------
    Analyzed: Pet Shop Boys / Introspective
    --------------------------------------------------------------------------------

    DR Peak RMS Duration Track
    --------------------------------------------------------------------------------
    DR14 -1.91 dB -18.39 dB 8:17 01-Left To My Own Devices
    DR13 -2.31 dB -16.84 dB 6:15 02-I Want A Dog
    DR13 -1.35 dB -16.41 dB 7:41 03-Domino Dancing
    DR14 -0.84 dB -16.55 dB 7:26 04-I'm Not Scared
    DR14 -0.93 dB -16.55 dB 9:05 05-Always On My Mind / In My House
    DR13 -0.32 dB -17.14 dB 9:24 06-It's Alright
    --------------------------------------------------------------------------------

    Number of tracks: 6
    Official DR value: DR13

    Samplerate: 44100 Hz
    Channels: 2
    Bits per sample: 16
    Bitrate: 881 kbps
    Codec: FLAC
    ================================================== ==============================





    Left To My Own Devices
    https://drive.google.com/file/d/1RFZ...ew?usp=sharing

    Domino Dancing
    https://drive.google.com/file/d/1XDP...ew?usp=sharing

    Always On My Mind / In My House
    https://drive.google.com/file/d/14mx...ew?usp=sharing

    It's Alright
    https://drive.google.com/file/d/1FGn...ew?usp=sharing

  8. The Following 3 Users Say Thank You to Jucier For This Useful Post:


  9. #95
    Membro Avatar de yestaken
    Data de Ingresso
    Feb 2014
    Localização
    Brasília
    Mensagens
    50
    Agradecimentos: 53
    Continuando...


    Artista: Queen
    Album: The Works
    Ano de lançamento: 1984
    Ano de lançamento da edição: 1984
    Label: EMI - CDP 7 46016 2
    País: Japan-For-UK
    Matrix: CDP 7 46016 2 CP35-3117 10B2






  10. The Following 3 Users Say Thank You to yestaken For This Useful Post:


  11. #96
    Membro Avatar de yestaken
    Data de Ingresso
    Feb 2014
    Localização
    Brasília
    Mensagens
    50
    Agradecimentos: 53
    Continuando...


    Artista: Twisted Sister
    Album: Love is For Suckers
    Ano de lançamento: 1987
    Ano de lançamento da edição: 1997
    Label: Atlantic - AMCY-3103
    País: Japan
    Matrix: AMCY-3103 1 IFPI L275 4520






  12. The Following 3 Users Say Thank You to yestaken For This Useful Post:


  13. #97
    Membro Avatar de yestaken
    Data de Ingresso
    Feb 2014
    Localização
    Brasília
    Mensagens
    50
    Agradecimentos: 53
    Continuando...



    Artista: Queen
    Album: Innuendo
    Ano de lançamento: 1991
    Ano de lançamento da edição: 1991
    Label: Hollywood Records ‎- HR-61020-2
    País: USA
    Matrix: 2 61020-2 SRC+02 M3S27






  14. The Following 3 Users Say Thank You to yestaken For This Useful Post:


  15. #98
    Membro Avatar de yestaken
    Data de Ingresso
    Feb 2014
    Localização
    Brasília
    Mensagens
    50
    Agradecimentos: 53
    Continuando...


    Artista: Michael Jackson
    Album: Thriller
    Ano de lançamento: 1982
    Ano de lançamento da edição: 1991
    Label: Epic - ESCA 5408
    País: Japan
    Matrix: DEPA-29 15 SMJ







  16. The Following 3 Users Say Thank You to yestaken For This Useful Post:


  17. #99
    Membro Avatar de yestaken
    Data de Ingresso
    Feb 2014
    Localização
    Brasília
    Mensagens
    50
    Agradecimentos: 53
    Continuando...


    Artista: Judas Priest
    Album: Defenders of The Faith
    Ano de lançamento: 1984
    Ano de lançamento da edição: 1984
    Label: Epic/SONY - 35.8P-40
    País: Japan
    Matrix: 35 8P-40 21 +++++








  18. The Following 4 Users Say Thank You to yestaken For This Useful Post:


  19. #100
    Membro Avatar de yestaken
    Data de Ingresso
    Feb 2014
    Localização
    Brasília
    Mensagens
    50
    Agradecimentos: 53
    Continuando...


    Artista: Mötley Crüe
    Album: Shout At The Devil
    Ano de lançamento: 1983
    Ano de lançamento da edição: 1988~1990
    Label: Elektra - 9 60289-2
    País: USA
    Matrix: 2 60289-2 SRC-06 M1 S12







  20. The Following 2 Users Say Thank You to yestaken For This Useful Post:


Permissões de Envio de Mensagem

  • Você não pode iniciar novos tópicos
  • Você não pode enviar respostas
  • Você não pode enviar anexos
  • Você não pode editar suas mensagens
  •