Página 11 de 11 PrimeiroPrimeiro ... 91011
Resultados 101 a 104 de 104

Tópico: Official - Clube do Compact Disc

  1. #101
    Membro Avatar de Jucier
    Data de Ingresso
    Aug 2020
    Localização
    Paulista/PE
    Mensagens
    21
    Agradecimentos: 18
    Artista: Roxy Music
    Álbum: Avalon
    Ano de lançamento: 1982
    Ano de lançamento da edição: 1984
    Label: Polydor ‎– 800 032-2, EG ‎– 800 032-2
    País: West Germany
    Matrix: 800 032-2 03 # | Polygram













    --------------------------------------------------------------------------------
    Analyzed: Roxy Music / Avalon
    --------------------------------------------------------------------------------

    DR Peak RMS Duration Track
    --------------------------------------------------------------------------------
    DR13 -1.67 dB -17.27 dB 4:31 01-More Than This
    DR16 0.00 dB -17.81 dB 4:31 02-The Space Between
    DR14 -0.73 dB -16.91 dB 4:17 03-Avalon
    DR13 -0.97 dB -18.00 dB 1:45 04-India
    DR14 -1.65 dB -18.51 dB 3:26 05-While My Heart Is Still Beating
    DR15 0.00 dB -16.50 dB 3:54 06-The Main Thing
    DR14 -1.30 dB -17.50 dB 4:43 07-Take A Chance With Me
    DR12 -2.41 dB -17.72 dB 4:17 08-To Turn You On
    DR13 -2.22 dB -17.22 dB 4:26 09-True To Life
    DR10 -8.26 dB -22.48 dB 1:32 10-Tara
    --------------------------------------------------------------------------------

    Number of tracks: 10
    Official DR value: DR13

    Samplerate: 44100 Hz
    Channels: 2
    Bits per sample: 16
    Bitrate: 626 kbps
    Codec: FLAC
    ================================================== ==============================




    More Than This
    https://drive.google.com/file/d/15Sw...ew?usp=sharing

  2. The Following 3 Users Say Thank You to Jucier For This Useful Post:


  3. #102
    Membro Avatar de yestaken
    Data de Ingresso
    Feb 2014
    Localização
    Brasília
    Mensagens
    50
    Agradecimentos: 53
    Continuando...


    Artista: RATT
    Album: Out of The Cellar
    Ano de lançamento: 1984
    Ano de lançamento da edição: 1988
    Label: Atlantic ‎- 20P2-2334
    País: Japan
    Matrix: 20P2-2334 2 CSR






  4. The Following 3 Users Say Thank You to yestaken For This Useful Post:


  5. #103
    Membro Avatar de yestaken
    Data de Ingresso
    Feb 2014
    Localização
    Brasília
    Mensagens
    50
    Agradecimentos: 53
    Continuando...


    Artista: Alice Cooper
    Album: Welcome To My Nightmare
    Ano de lançamento: 1975
    Ano de lançamento da edição: 1988~1989
    Label: Atlantic - 781 542-2
    País: Germany
    Matrix: 781542-2 SRC-03 43







  6. The Following 2 Users Say Thank You to yestaken For This Useful Post:


  7. #104
    Membro Avatar de Jucier
    Data de Ingresso
    Aug 2020
    Localização
    Paulista/PE
    Mensagens
    21
    Agradecimentos: 18
    Artista: Morrissey
    Álbum: Viva Hate
    Ano de lançamento: 1988
    Ano de lançamento da edição: 1988
    Label: His Master's Voice ‎– CDCSD 3787, His Master's Voice ‎– CDP 7 90180 2, Fame ‎– CD-FA 3243
    País: UK
    Matrix: CDP 7 90180 2 AR @2 + | BIEM/MCPS




    Pequeno acidente alcoólico causou essa rachadura:










    --------------------------------------------------------------------------------
    Analyzed: Morrissey / Viva Hate
    --------------------------------------------------------------------------------

    DR Peak RMS Duration Track
    --------------------------------------------------------------------------------
    DR11 -2.09 dB -15.21 dB 3:13 01-Alsatian Cousin
    DR11 -5.21 dB -18.51 dB 1:49 02-Little Man, What Now?
    DR11 -1.65 dB -14.49 dB 3:36 03-Everyday Is Like Sunday
    DR13 -3.98 dB -17.98 dB 3:56 04-Bengali In Platforms
    DR10 -5.41 dB -17.55 dB 1:40 05-Angel, Angel, Down We Go Together
    DR12 -2.81 dB -17.28 dB 7:40 06-Late Night, Maudlin Street
    DR12 -0.97 dB -15.45 dB 3:56 07-Suedehead
    DR14 -2.45 dB -18.52 dB 3:56 08-Break Up The Family
    DR12 -2.28 dB -16.72 dB 3:11 09-The Ordinary Boys
    DR12 -2.30 dB -15.66 dB 3:17 10-I Don't Mind If You Forget Me
    DR11 -4.14 dB -18.05 dB 2:28 11-Dial-A-Cliché
    DR13 -6.87 dB -22.20 dB 3:42 12-Margaret On The Guillotine
    --------------------------------------------------------------------------------

    Number of tracks: 12
    Official DR value: DR12

    Samplerate: 44100 Hz
    Channels: 2
    Bits per sample: 16
    Bitrate: 1411 kbps
    Codec: PCM
    ================================================== ==============================




    Break Up The Family
    https://drive.google.com/file/d/1DaX...ew?usp=sharing

    Suedehead
    https://drive.google.com/file/d/10K1...ew?usp=sharing

    Everyday Is Like Sunday
    https://drive.google.com/file/d/16lU...ew?usp=sharing



    Esse foi o quarto e último (agora eu juro que eu paro).



  8. The Following 3 Users Say Thank You to Jucier For This Useful Post:


Permissões de Envio de Mensagem

  • Você não pode iniciar novos tópicos
  • Você não pode enviar respostas
  • Você não pode enviar anexos
  • Você não pode editar suas mensagens
  •