Página 18 de 18 PrimeiroPrimeiro ... 8161718
Resultados 171 a 179 de 179

Tópico: Official - Clube do Compact Disc

  1. #171
    Membro Avatar de Luan
    Data de Ingresso
    Aug 2020
    Localização
    São Paulo
    Mensagens
    43
    Agradecimentos: 70
    Citação Enviado originalmente por Rinaldi Moreira Ver Mensagem
    Taí uma banda que gosta de presentear seus fã com CDs fora do comum, os encartes do Lateralus, 10.000 Days e Fear Inoculum são experiências únicas muito além da música, algo bem difícil de encontrar no mercado.
    Como um grande fã do Tool e A Perfect Circle conheço muito bem o Fear Inoculum e concordo com o que vc descreveu.

    Para quem não conhece a banda segue os encarte dos discos que citei:
    Lateralus
    Anexo 6150

    10.000 Days
    Anexo 6151

    Fear Inoculum
    Anexo 6152
    Uaaaauuuu! Cara esse CD do Fear Inocolum é simples a coisa mais impressionante lançada nesse formato! Além do álbum em si que é super bem feito. Um dia espero conseguir um exemplar!

    Tool é uma banda muito interessante, vale a pena conferir com toda certeza!

  2. The Following 3 Users Say Thank You to Luan For This Useful Post:


  3. #172
    Membro Avatar de Luan
    Data de Ingresso
    Aug 2020
    Localização
    São Paulo
    Mensagens
    43
    Agradecimentos: 70
    Aqui mais uma indicação, CD nacional feito pela Urubuz Record, muita qualidade de fabricação com Slipcase, pôster e um álbum que além de um clássico moderno uma dinâmica muito boa.!

  4. The Following 3 Users Say Thank You to Luan For This Useful Post:


  5. #173
    Membro Avatar de Jucier
    Data de Ingresso
    Aug 2020
    Localização
    Paulista/PE
    Mensagens
    42
    Agradecimentos: 59
    Artista: Chico Science & Nação Zumbi
    Album: Afrociberdelia
    Ano de lançamento: 1996
    Ano de lançamento da edição: 1996
    Label: Chaos ‎– 850.278/2-479255
    País: Brazil
    Fabricante Sony Music Brasil
    Matrix: 1-1-850278 1 IFPI L391 MASTERED BY SME BRASIL

















    --------------------------------------------------------------------------------
    Analyzed: Chico Science & Nação Zumbi / Afrociberdelia
    --------------------------------------------------------------------------------

    DR Peak RMS Duration Track
    --------------------------------------------------------------------------------
    DR11 -0.10 dB -11.55 dB 0:33 01-Mateus Enter
    DR8 -1.22 dB -11.14 dB 3:21 02-O Cidadão Do Mundo
    DR9 -0.10 dB -9.82 dB 2:32 03-Etnia
    DR8 -0.10 dB -10.49 dB 2:32 04-Quilombo Groove
    DR7 -0.59 dB -8.89 dB 4:10 05-Macô
    DR11 -0.10 dB -11.84 dB 4:00 06-Um Passeio No Mundo Livre
    DR10 -0.10 dB -10.48 dB 3:47 07-Samba Do Lado
    DR8 -0.28 dB -9.92 dB 4:44 08-Maracatu Atômico
    DR9 -1.86 dB -13.07 dB 1:39 09-O Encontro De Isaac Asimov Com Santos Dumont No Céu
    DR7 -0.10 dB -9.13 dB 3:53 10-Corpo De Lama
    DR10 -0.10 dB -11.89 dB 4:00 11-Sobremesa
    DR9 -0.54 dB -10.55 dB 3:14 12-Manguetown
    DR6 -0.10 dB -6.89 dB 2:07 13-Um Satélite Na Cabeça
    DR9 -0.10 dB -9.65 dB 2:33 14-Baião Ambiental
    DR7 -0.10 dB -8.63 dB 2:12 15-Sangue De Bairro
    DR7 -0.10 dB -9.02 dB 1:29 16-Enquanto O Mundo Explode
    DR11 -0.10 dB -13.47 dB 1:12 17-Interlude Zumbi
    DR8 -0.10 dB -9.10 dB 3:28 18-Criança De Domingo
    DR10 -0.10 dB -10.74 dB 2:55 19-Amor De Muito
    DR8 -0.21 dB -13.77 dB 4:32 20-Samadarish
    DR12 -0.10 dB -14.15 dB 4:33 21-Maracatu Atômico (Atomic Version)
    DR13 -0.10 dB -14.49 dB 3:30 22-Maracatu Atômico (Ragga Mix)
    DR14 -0.72 dB -17.12 dB 3:41 23-Maracatu Atômico (Trip Hop)
    --------------------------------------------------------------------------------

    Number of tracks: 23
    Official DR value: DR9

    Samplerate: 44100 Hz
    Channels: 2
    Bits per sample: 16
    Bitrate: 1411 kbps
    Codec: PCM
    ================================================== ==============================




    01-Mateus Enter
    https://drive.google.com/file/d/1MFi...ew?usp=sharing

    02-O Cidadão Do Mundo
    https://drive.google.com/file/d/1vee...ew?usp=sharing

    03-Etnia
    https://drive.google.com/file/d/118I...ew?usp=sharing

    04-Quilombo Groove
    https://drive.google.com/file/d/1js_...ew?usp=sharing

    05-Macô
    https://drive.google.com/file/d/1lSG...ew?usp=sharing

    08-Maracatu Atômico
    https://drive.google.com/file/d/1mJ1...ew?usp=sharing

    12-Manguetown
    https://drive.google.com/file/d/1iH2...ew?usp=sharing
    Última edição por Jucier; 21-11-20 às 13:46.

  6. The Following 3 Users Say Thank You to Jucier For This Useful Post:


  7. #174
    Membro Avatar de Jucier
    Data de Ingresso
    Aug 2020
    Localização
    Paulista/PE
    Mensagens
    42
    Agradecimentos: 59
    Artista: Caetano Veloso
    Album: Cores, Nomes
    Ano de lançamento: 1982
    Ano de lançamento da edição: ????
    Label: Verve Records ‎– 838 464-2
    País: US
    Fabricante Polygram Classics & Jazz
    Matrix: 838 464-2 01 ! F













    --------------------------------------------------------------------------------
    Analyzed: Caetano Veloso / Cores, Nomes
    --------------------------------------------------------------------------------

    DR Peak RMS Duration Track
    --------------------------------------------------------------------------------
    DR14 -2.25 dB -18.67 dB 4:27 01-Queixa
    DR14 -3.10 dB -19.22 dB 7:18 02-Ele Me Deu Um Beijo Na Boca
    DR13 -1.46 dB -18.13 dB 2:29 03-Trem Das Cores
    DR14 -7.25 dB -24.97 dB 2:21 04-Sete Mil Vezes
    DR14 -5.90 dB -23.97 dB 2:37 05-Coqueiro De Itapoã
    DR12 -3.96 dB -18.98 dB 3:04 06-Um Canto De Afoxé Para O Bloco Do Ilê
    DR13 -3.34 dB -17.80 dB 3:43 07-Cavaleiro De Jorge
    DR15 -1.21 dB -17.77 dB 4:22 08-Sina
    DR15 -6.68 dB -25.48 dB 4:04 09-Meu Bem, Meu Mal
    DR13 -5.05 dB -19.58 dB 2:59 10-Gênesis
    DR15 -5.59 dB -24.09 dB 3:02 11-Sonhos
    DR14 -3.28 dB -20.33 dB 3:19 12-Surpresa
    --------------------------------------------------------------------------------

    Number of tracks: 12
    Official DR value: DR14

    Samplerate: 44100 Hz
    Channels: 2
    Bits per sample: 16
    Bitrate: 1411 kbps
    Codec: PCM
    ================================================== ==============================




    01-Queixa
    https://drive.google.com/file/d/1EEI...ew?usp=sharing

    08-Sina
    https://drive.google.com/file/d/17vX...ew?usp=sharing

    10-Gênesis
    https://drive.google.com/file/d/1jME...ew?usp=sharing

  8. Os seguintes membros agradeceram Jucier por esta mensagem:


  9. #175
    Membro Avatar de Jucier
    Data de Ingresso
    Aug 2020
    Localização
    Paulista/PE
    Mensagens
    42
    Agradecimentos: 59
    Prezados,

    Em complemento ao conteúdo do clube, nosso mestre Luan criou este grupo no WhatsApp para uma interação e compartilhamento mais dinâmicos (mas sem nunca deixarmos de postar aqui também).


    https://chat.whatsapp.com/J7QhaTr17ar3XhhgEJqYZR


    Todos, sintam-se à vontade para participar.
    Última edição por Jucier; 29-12-20 às 14:23.

  10. Os seguintes membros agradeceram Jucier por esta mensagem:


  11. #176
    Feliz ano novo à todos.

    Pessoal, na amazon.com.br tem um box do Van Halen - Studio Albums1978-1984 Box Set Remaster Warner.
    Tenho todos esses cds originais lançados nos anos 80.
    Minha dúvida é se valeria a pena comprar esse box por causa da remasterização.
    Alguém já comparou para poder informar se a diferença do box é superior para valer a compra?

  12. #177
    Membro
    Data de Ingresso
    Sep 2020
    Localização
    Brasil
    Mensagens
    13
    Agradecimentos: 6
    Citação Enviado originalmente por marcio1965 Ver Mensagem
    Feliz ano novo à todos.

    Pessoal, na amazon.com.br tem um box do Van Halen - Studio Albums1978-1984 Box Set Remaster Warner.
    Tenho todos esses cds originais lançados nos anos 80.
    Minha dúvida é se valeria a pena comprar esse box por causa da remasterização.
    Alguém já comparou para poder informar se a diferença do box é superior para valer a compra?
    Difícil ter uma certeza sem ouvir. Remasterização nem sempre é sinônimo de melhorias.

  13. #178
    Membro Avatar de Jucier
    Data de Ingresso
    Aug 2020
    Localização
    Paulista/PE
    Mensagens
    42
    Agradecimentos: 59
    Artista: Chico Science & Nação Zumbi
    Album: Da Lama Ao Caos
    Ano de lançamento: 1994
    Ano de lançamento da edição: ????
    Label: Chaos / Sony BMG Music Entertainment ‎– 2-464476
    País: Brazil
    Fabricante Sony Music Entertainment Brasil
    Matrix: IFPI L391 SONY DADC BRAZIL 1-1-464476-04
















    --------------------------------------------------------------------------------
    Analyzed: Chico Science & Nação Zumbi / Da Lama Ao Caos
    --------------------------------------------------------------------------------

    DR Peak RMS Duration Track
    --------------------------------------------------------------------------------
    DR10 0.00 dB -11.32 dB 5:07 01-Monólogo Ao Pé Do Ouvido / Banditismo Por Uma Questão De Classe
    DR10 0.00 dB -11.28 dB 4:04 02-Rios, Pontes & Overdrives
    DR11 0.00 dB -12.07 dB 4:47 03-A Cidade / Boia Noite Do Velho Faceta (Amor De Criança) (Música Incidental)
    DR10 0.00 dB -11.36 dB 3:36 04-A Praieira
    DR10 0.00 dB -11.90 dB 3:04 05-Samba Makossa
    DR10 0.00 dB -11.35 dB 4:32 06-Da Lama Ao Caos
    DR9 0.00 dB -9.88 dB 4:11 07-Maracatu De Tiro Certeiro
    DR8 0.00 dB -10.69 dB 1:29 08-Salustiano Song
    DR10 0.00 dB -10.86 dB 3:35 09-Antene-se
    DR8 0.00 dB -9.51 dB 4:08 10-Risoflora
    DR8 0.00 dB -10.90 dB 1:46 11-Lixo Do Mangue
    DR10 0.00 dB -11.45 dB 3:13 12-Computadores Fazem Arte
    DR11 0.00 dB -12.20 dB 6:44 13-Côco Dub (Afrociberdelia)
    --------------------------------------------------------------------------------

    Number of tracks: 13
    Official DR value: DR10

    Samplerate: 44100 Hz
    Channels: 2
    Bits per sample: 16
    Bitrate: 1411 kbps
    Codec: PCM
    ================================================== ==============================




    01-Monólogo Ao Pé Do Ouvido , Banditismo Por Uma Questão De Classe
    https://drive.google.com/file/d/1Ewf...ew?usp=sharing

    02-Rios, Pontes E Overdrives
    https://drive.google.com/file/d/1TPo...ew?usp=sharing

    03-A Cidade
    https://drive.google.com/file/d/1wwM...ew?usp=sharing

    06-Da Lama Ao Caos
    https://drive.google.com/file/d/1sBY...ew?usp=sharing

    09-Antene-se
    https://drive.google.com/file/d/1r8e...ew?usp=sharing

    10-Risoflora
    https://drive.google.com/file/d/1yoi...ew?usp=sharing

    12-Computadores Fazem Arte
    https://drive.google.com/file/d/1ttT...ew?usp=sharing

    13-Côco Dub (Afrociberdelia)
    https://drive.google.com/file/d/1ATp...ew?usp=sharing

  14. The Following 2 Users Say Thank You to Jucier For This Useful Post:


  15. #179
    Membro Avatar de Jucier
    Data de Ingresso
    Aug 2020
    Localização
    Paulista/PE
    Mensagens
    42
    Agradecimentos: 59
    Artista: Milton Nascimento E Lô Borges
    Album: Clube da Esquina
    Ano de lançamento: 1972
    Ano de lançamento da edição: 1989
    Label: EMI ‎– 664 792696 2
    País: Brazil
    Fabricante Microservice
    Matrix: Disco 01: 7926972/03 SRC-02 | Disco 02: sem matrix
















    --------------------------------------------------------------------------------
    Analyzed: Milton Nascimento , Lô Borges / Clube Da Esquina
    --------------------------------------------------------------------------------

    DR Peak RMS Duration Track
    --------------------------------------------------------------------------------
    DR12 -3.02 dB -20.28 dB 2:57 01-Tudo Que Você Podia Ser
    DR12 -7.14 dB -24.25 dB 2:46 02-Cais
    DR12 -2.02 dB -17.34 dB 4:08 03-O Trem Azul
    DR11 -4.74 dB -18.33 dB 0:48 04-Saídas E Bandeiras Nᵒ 1
    DR11 -5.42 dB -18.95 dB 2:59 05-Nuvem Cigana
    DR11 -2.28 dB -18.54 dB 2:33 06-Cravo E Canela
    DR12 -4.15 dB -20.73 dB 5:24 07-Dos Cruces
    DR12 -5.55 dB -20.77 dB 4:14 08-Um Girassol Da Cor De Seu Cabelo
    DR12 -2.80 dB -20.83 dB 2:46 09-San Vicente
    DR10 -7.84 dB -20.69 dB 0:28 10-Estrelas
    DR11 -2.81 dB -19.43 dB 3:39 11-Clube Da Esquina Nº 2
    --------------------------------------------------------------------------------

    Number of tracks: 11
    Official DR value: DR11

    Samplerate: 44100 Hz
    Channels: 2
    Bits per sample: 16
    Bitrate: 1411 kbps
    Codec: PCM
    ================================================== ==============================

    DR Peak RMS Duration Track
    --------------------------------------------------------------------------------
    DR12 -1.40 dB -16.42 dB 2:58 01-Paisagem Da Janela
    DR13 -0.27 dB -17.88 dB 3:06 02-Me Deixa Em Paz
    DR13 0.00 dB -16.74 dB 4:32 03-Os Povos
    DR11 -2.06 dB -15.61 dB 1:29 04-Saídas E Bandeiras Nᵒ 2
    DR10 -3.60 dB -17.07 dB 4:20 05-Um Gosto De Sol
    DR11 -2.90 dB -16.70 dB 2:07 06-Pelo Amor De Deus
    DR12 -3.89 dB -18.56 dB 2:31 07-Lilia
    DR13 -2.15 dB -17.26 dB 4:00 08-Trem De Doido
    DR12 -2.03 dB -16.84 dB 3:23 09-Nada Será Como Antes
    DR12 -0.81 dB -19.32 dB 3:20 10-Ao Que Vai Nascer
    --------------------------------------------------------------------------------

    Number of tracks: 10
    Official DR value: DR12

    Samplerate: 44100 Hz
    Channels: 2
    Bits per sample: 16
    Bitrate: 1411 kbps
    Codec: PCM
    ================================================== ==============================




    Clube Da Esquina Nº 2
    https://drive.google.com/file/d/1Gxl...ew?usp=sharing

    Tudo Que Você Podia Ser
    https://drive.google.com/file/d/1nI1...ew?usp=sharing

    O Trem Azul
    https://drive.google.com/file/d/1nfq...ew?usp=sharing

    Cravo E Canela
    https://drive.google.com/file/d/1i_R...ew?usp=sharing

    Um Girassol Da Cor Do Seu Cabelo
    https://drive.google.com/file/d/1Zpu...ew?usp=sharing

    Paisagem Da Janela
    https://drive.google.com/file/d/12da...ew?usp=sharing

    Trem De Doido
    https://drive.google.com/file/d/1I_y...ew?usp=sharing

Permissões de Envio de Mensagem

  • Você não pode iniciar novos tópicos
  • Você não pode enviar respostas
  • Você não pode enviar anexos
  • Você não pode editar suas mensagens
  •