Página 3 de 14 PrimeiroPrimeiro 1234513 ... ÚltimoÚltimo
Resultados 21 a 30 de 132

Tópico: Official - Clube do Compact Disc

  1. #21
    Membro Avatar de yestaken
    Data de Ingresso
    Feb 2014
    Localização
    Brasília
    Mensagens
    56
    Agradecimentos: 69
    Continuando...


    Artista: Poison
    Album: Open Up and Say... Ahh!
    Ano de lançamento: 1988
    Ano de lançamento da edição: 1988
    Label: Enigma/Capitol Records - CDP 548493
    País: USA
    Matrix: DIDX-002493 1 MADE IN USA * DIGITAL AUDIO DISC CORP. *D*






  2. #22
    Membro Avatar de yestaken
    Data de Ingresso
    Feb 2014
    Localização
    Brasília
    Mensagens
    56
    Agradecimentos: 69
    Continuando...


    Artista: Pavlov's Dog
    Album: Pampered Menial
    Ano de lançamento: 1976
    Ano de lançamento da edição: 1988
    Label: CBS - CDCBS 32480
    País: Austria
    Matrix: CDCBS-32480 12 A2 MASTERED BY DADC AUSTRIA






  3. #23
    Administrador Avatar de Eduardo
    Data de Ingresso
    Apr 2011
    Localização
    Aqui mesmo...
    Mensagens
    6,100
    Agradecimentos: 38
    Você já comparou CDs nacionais com importados?

    Eu comparei do Queen, e o japonês é um pouco melhor.
    Eduardo

    ____________________________________________

    Audiofilia: Retroceder Nunca, Render-se Jamais

    www.hifiplanet.com.br

  4. #24
    Membro Avatar de Jucier
    Data de Ingresso
    Aug 2020
    Localização
    Paulista/PE
    Mensagens
    32
    Agradecimentos: 39
    Saudações a todos.

    https://youtu.be/Iy-3NZ3AEM0

    P.S.: Imaginar que no lugar dos jogos são as bandas: Iron Maiden, Black Sabbath, Dio, Scorpions, The Smiths e... Pablo Vittar.

  5. #25
    Membro Avatar de Jucier
    Data de Ingresso
    Aug 2020
    Localização
    Paulista/PE
    Mensagens
    32
    Agradecimentos: 39
    Começando... Postar um hoje só pra não sair insosso...



    Artista: The Smiths
    Album: The Queen Is Dead
    Ano de lançamento: 1986
    Ano de lançamento da edição: 2017
    Label: Warner Bros. Records ‎- 0190295783372
    País: UK & Europe


    Intitulado de Master 2017 (e não remaster). O motivo, eu não sei.




    Meu primeiro encarte fora do tamanho padrão (este possui o mesmo tamanho dos cases estilo vinil)















    DVD








    Graficamente perfeito, mas na faixa dinâmica...



    --------------------------------------------------------------------------------

    Analyzed: The Smiths / The Queen Is Dead

    --------------------------------------------------------------------------------


    DR Peak RMS Duration Track

    --------------------------------------------------------------------------------

    DR7 0.00 dB -8.88 dB 6:24 01-The Queen Is Dead

    DR11 -1.17 dB -13.24 dB 2:18 02-Frankly, Mr. Shankly

    DR9 -0.69 dB -12.56 dB 5:48 03-I Know It's Over

    DR8 -0.83 dB -11.56 dB 3:37 04-Never Had No One Ever

    DR8 -1.01 dB -10.94 dB 2:38 05-Cemetry Gates

    DR6 -0.84 dB -8.44 dB 3:12 06-Bigmouth Strikes Again

    DR7 -0.46 dB -8.51 dB 3:16 07-The Boy With The Thorn In His Side

    DR8 -0.07 dB -9.13 dB 2:22 08-Vicar In A Tutu

    DR7 -0.44 dB -8.94 dB 4:03 09-There Is A Light That Never Goes Out

    DR8 -0.13 dB -10.57 dB 3:16 10-Some Girls Are Bigger Than Others

    --------------------------------------------------------------------------------


    Number of tracks: 10

    Official DR value: DR8


    Samplerate: 44100 Hz

    Channels: 2

    Bits per sample: 16

    Bitrate: 1411 kbps

    Codec: PCM

    ================================================== ==============================




    Warner Bros. Records, UK e Europa (2017), Optimal Media GmbH


    Some Girls Are Bigger Than Others
    https://drive.google.com/file/d/1kMv...ew?usp=sharing


    The Boy With The Thorn In His Side
    https://drive.google.com/file/d/1wNg...ew?usp=sharing


    The Queen Is Dead
    https://drive.google.com/file/d/1a4C...ew?usp=sharing


    I Know It's Over
    https://drive.google.com/file/d/1JL7...ew?usp=sharing




    Em comparação com uma das primeiras edições:


    Rough Trade, UK (1986), PDO


    Some Girls Are Bigger Than Others
    https://drive.google.com/file/d/13YV...ew?usp=sharing


    The Boy With The Thorn In His Side
    https://drive.google.com/file/d/1jqc...ew?usp=sharing


    The Queen Is Dead
    https://drive.google.com/file/d/1Dqd...HX1C9-MRJexSIO


    I Know It's Over
    https://drive.google.com/file/d/18g0...M66-P83msYhrw/
    Última edição por Jucier; 26-08-20 às 13:00.

  6. #26
    Membro Avatar de Luan
    Data de Ingresso
    Aug 2020
    Localização
    São Paulo
    Mensagens
    29
    Agradecimentos: 25
    Só me dei conta agora Mestre, esse CD do Poison é Capitol, mas foi prensado na DADC! Bem legal, realmente uma mídia linda.

  7. #27
    Membro Avatar de yestaken
    Data de Ingresso
    Feb 2014
    Localização
    Brasília
    Mensagens
    56
    Agradecimentos: 69
    Citação Enviado originalmente por Eduardo Ver Mensagem
    Você já comparou CDs nacionais com importados?

    Eu comparei do Queen, e o japonês é um pouco melhor.
    Já sim Eduardo.

    É um assunto um pouco delicado, mas a princípio assim funciona:

    As maiores e melhores fábricas do começo da década de 90 no Brasil foram MICROSERVICE & SONOPRESS.

    Ambas utilizaram dos mesmos materiais, que eram o padrão em todo mundo, para a prensagem das mídias. Foi utilizado de quase o mesmo esmero, sendo inclusive várias masters sendo recebidas diretamente da Alemanha pela SONOPRESS.

    Todas as duas fizeram bem o seu papel no início, com exceção de um fator: Qualidade do encarte impresso. Como já era de se esperar, não colocaram dinheiro nessa parte, e as impressas utilizadas na época foram de qualidade baixa, tinta de qualidade baixa etc.

    Um exemplo: Edição Bark At The Moon, Ozzy Osbourne. Você pega a edição BR de Label 759.059/2-025739 & a edição USA de Label CBS ‎- ZK 38987. Ambas possuem a mesma master americana (qualidade de reprodução será exatamente igual), mas comparando o encarte das duas, você nota a diferença clara na qualidade do impresso.

    Há edições com maior qualidade impressa BR do início da década, eu tenho alguns exemplares, mas é a exceção, infelizmente.

  8. #28
    Administrador Avatar de Eduardo
    Data de Ingresso
    Apr 2011
    Localização
    Aqui mesmo...
    Mensagens
    6,100
    Agradecimentos: 38
    Também acho que a maior diferença está no master utilizado, e não na mídia.
    Eduardo

    ____________________________________________

    Audiofilia: Retroceder Nunca, Render-se Jamais

    www.hifiplanet.com.br

  9. #29
    Membro Avatar de yestaken
    Data de Ingresso
    Feb 2014
    Localização
    Brasília
    Mensagens
    56
    Agradecimentos: 69
    Citação Enviado originalmente por Jucier Ver Mensagem
    Começando... Postar um hoje só pra não sair insosso...



    Artista: The Smiths
    Album: The Queen Is Dead
    Ano de lançamento: 1986
    Ano de lançamento da edição: 2017
    Label: Warner Bros. Records ‎- 0190295783372
    País: UK & Europe
    Matrix:


    Intitulado de Master 2017 (e não remaster). O motivo, eu não sei.




    Meu primeiro encarte fora do tamanho padrão (este possui o mesmo tamanho dos cases estilo vinil)




    DVD




    Graficamente perfeito, mas na faixa dinâmica...



    --------------------------------------------------------------------------------

    Analyzed: The Smiths / The Queen Is Dead

    --------------------------------------------------------------------------------


    DR Peak RMS Duration Track

    --------------------------------------------------------------------------------

    DR7 0.00 dB -8.88 dB 6:24 01-The Queen Is Dead

    DR11 -1.17 dB -13.24 dB 2:18 02-Frankly, Mr. Shankly

    DR9 -0.69 dB -12.56 dB 5:48 03-I Know It's Over

    DR8 -0.83 dB -11.56 dB 3:37 04-Never Had No One Ever

    DR8 -1.01 dB -10.94 dB 2:38 05-Cemetry Gates

    DR6 -0.84 dB -8.44 dB 3:12 06-Bigmouth Strikes Again

    DR7 -0.46 dB -8.51 dB 3:16 07-The Boy With The Thorn In His Side

    DR8 -0.07 dB -9.13 dB 2:22 08-Vicar In A Tutu

    DR7 -0.44 dB -8.94 dB 4:03 09-There Is A Light That Never Goes Out

    DR8 -0.13 dB -10.57 dB 3:16 10-Some Girls Are Bigger Than Others

    --------------------------------------------------------------------------------


    Number of tracks: 10

    Official DR value: DR8


    Samplerate: 44100 Hz

    Channels: 2

    Bits per sample: 16

    Bitrate: 1411 kbps

    Codec: PCM

    ================================================== ==============================




    Warner Bros. Records, UK e Europa (2017)


    Some Girls Are Bigger Than Others

    [MEDIA=googledrive]1kMvmG-6bZWRgbdfgJO8QARYmtDfp2vP6[/MEDIA]


    The Boy With The Thorn In His Side

    [MEDIA=googledrive]1wNg0Huqk_f5DvhRLzLuJfNUJ8LNpfPGV[/MEDIA]


    The Queen Is Dead

    [MEDIA=googledrive]1a4CsVoQUUmQ5t-Ny_d-yNW0LPjzrX5Q0[/MEDIA]


    I Know It's Over

    [MEDIA=googledrive]1JL79ZpAky9Obfzuu5MX3UxlzeK26KcNM[/MEDIA]




    Em comparação com uma das primeiras edições:


    Rough Trade, UK (1986)


    Some Girls Are Bigger Than Others

    [MEDIA=googledrive]13YV3LNYSig6Qcm2GtEKRmu2yxc3NkOze[/MEDIA]


    The Boy With The Thorn In His Side

    [MEDIA=googledrive]1jqcK6KtgPlopG1joIUdTZHXFcp8yfQi6[/MEDIA]


    The Queen Is Dead

    [MEDIA=googledrive]1DqdnywoLIRRl2vTFKcHX1C9-MRJexSIO[/MEDIA]


    I Know It's Over

    [MEDIA=googledrive]18g0tuNfYt-s0n8k5zvDM66-P83msYhrw[/MEDIA]
    Bem vindo Jucier! obrigado por aparecer por aqui!

    As imagens ainda não estão aparecendo, tenta dar uma ajustada nos links aí.

  10. #30
    Membro Avatar de yestaken
    Data de Ingresso
    Feb 2014
    Localização
    Brasília
    Mensagens
    56
    Agradecimentos: 69
    Citação Enviado originalmente por Luan Ver Mensagem
    Só me dei conta agora Mestre, esse CD do Poison é Capitol, mas foi prensado na DADC! Bem legal, realmente uma mídia linda.
    Realmente Luan. Obrigado por aparecer por aqui também!

Permissões de Envio de Mensagem

  • Você não pode iniciar novos tópicos
  • Você não pode enviar respostas
  • Você não pode enviar anexos
  • Você não pode editar suas mensagens
  •